[Aufnahmewunsch] Auf schlimmer und ewig ab 06.August.2018 (Nitro HD)

  • Das wäre spitze, wenn du dann zu dieser Serienperle ordentliche x264 Encodes anbieten könntest. Ob SD oder HD ist ganz egal. Hauptsache, die alten XviDs mit dem häßlich weggeblurrten Logo können endlich ersetzt werden. :)

  • General
    Complete name : Y:\(Serien) Unhappily Ever After [5⁄5]\Staffel 01 [13⁄13]\Auf.schlimmer.und.ewig.S01E01.Scheidungsopfer.German.dTv.XVID-KHPP.avi
    Format : AVI
    Format/Info : Audio Video Interleave
    File size : 233 MiB
    Duration : 23 min 13 s
    Overall bit rate mode : Variable
    Overall bit rate : 1 402 kb/s
    Writing application : VirtualDubMod 1.5.4.1 (build 2178/release)
    Writing library : VirtualDubMod build 2178/release



    Video
    ID : 0
    Format : MPEG-4 Visual
    Format profile : Advanced [email protected]
    Format settings, BVOP : 1
    Format settings, QPel : No
    Format settings, GMC : No warppoints
    Format settings, Matrix : Custom
    Codec ID : XVID
    Codec ID/Hint : XviD
    Duration : 23 min 13 s
    Bit rate : 1 274 kb/s
    Width : 576 pixels
    Height : 432 pixels
    Display aspect ratio : 4:3
    Frame rate : 25.000 FPS
    Color space : YUV
    Chroma subsampling : 4:2:0
    Bit depth : 8 bits
    Scan type : Progressive
    Compression mode : Lossy
    Bits/(Pixel*Frame) : 0.205
    Stream size : 212 MiB (91%)
    Writing library : XviD 1.2.0SMP (UTC 2006-01-08)



    Audio
    ID : 1
    Format : MPEG Audio
    Format version : Version 1
    Format profile : Layer 3
    Mode : Joint stereo
    Mode extension : MS Stereo
    Codec ID : 55
    Codec ID/Hint : MP3
    Duration : 23 min 13 s
    Bit rate mode : Variable
    Bit rate : 115 kb/s
    Nominal bit rate : 128 kb/s
    Channel(s) : 2 channels
    Sampling rate : 48.0 kHz
    Compression mode : Lossy
    Stream size : 19.2 MiB (8%)
    Alignment : Aligned on interleaves
    Interleave, duration : 24 ms (0.60 video frame)
    Interleave, preload duration : 556 ms
    Writing library : LAME3.97b
    Encoding settings : -m j -V 4 -q 2 -lowpass 17 --abr 128

    ximg.php?fid=18046229
    Suche:
    The League Of Gentlemen German Staffel 3
    Mad Men 1-3 1080p

  • So, die Aufnahme hat geklappt. Ich werde hier nachher mal die erste Folge in 720p zum probegucken reinstellen.


    So hier zum testen.


    http://www.share-online.biz/dl/4KJ002DPYE/
    http://www.share-online.biz/dl/J9D002DP3P4Q/

    ggü. den xvid rips natürlich ein Quantensprung. Gehe davon aus, dass die Serie wie "Eine schrecklich nette Familie" auf Video gedreht wurde. Besser wirds daher von der Bildqualität wohl nie werden.

  • Hab auch mal reingeschaut... ist nur hochskaliert. Besser als die Xvids auf der Main ist es aber auf jeden Fall. :thumbup:


    Ich bin recht sicher, dass ein guter SD-Encode ausreichen würde. Müsste man mal vergleichen.

  • Danke Dir, Dulli.


    Sieht im Gegensatz zu den dTV Rips wirklich ganz brauchbar aus. ;)
    Im Netz gibt es leider nichts anderes gescheites.


    Wäre wirklich super, wenn Du mit dem Projekt im 720p HDTV Format weiter machst?
    Diese rare Kultserie hat definitiv ein "Quality-Upgrade" verdient. *fg*


    VIELEN DANK!!! :-)


    MfG

  • Ich kann gern auch SD machen wenn gewünscht und wenn DVDSpezialist nichts dagegen hat, ist schließlich sein SD-Upload auf der Main.
    720p kann man ja trotzdem anbieten für die die es wollen.

    MfG Duli



    HIER GIBT ES KEINEN REFFERAL-LINK

  • Von mir auch ein DANKESCHÖN für die 720p Upscales auf der Main. Bei der ersten Folge müsstest du evtl. bei der Stelle, wo die Werbung war, nochmals schneiden. Da ist eine Szene doppelt, da nach der Werbung ein kleines Stück einfach nochmal wiederholt wurde.


    Ansonsten sieht das doch eigentlich sehr gut aus. Besser als die alten XviD Rips, die dann definitiv in die Tonne können, wenn das mit den Aufnahmen soweit klappt... :thumbsup: