Suche Rohmaterial für Alle hassen Chris

    • Suche Rohmaterial für Alle hassen Chris

      Vor über einem Jahr habe ich viele Folgen Alle hassen Chris (Everybody hates Chris) von CW Seed in 1080p heruntergeladen und diese warten seitdem darauf, gedubbt zu werden. Jedoch mangelt es mir an ordentlichem deutschem Material dafür. Die gedubbten DVDrips von der Main würde ich dafür ungern verwenden, da dort der Ton von Pro7 verwendet wurde und somit mindestens am Anfang und am Ende jeder Folge das störende "Bling-Geräusch" vorhanden ist.
      Wenn also jemand untouched DVDs in deutscher Sprache oder Rohmaterial von der Ausstrahlung bei Comedy Central, VIVA, ORF1, Puls4 oder SF2 besitzt, wäre ich sehr dankbar, wenn diese zur Verfügung gestellt werden könnten.
    • Ich muss mal schauen. Habe damals von Comedy Central fast alle Folgen mitgeschnitten, um den Untouched Ton dann irgendwann mal selber zu dubben. Auf dem Wege bin ich aber heute immer noch. Wenn du das dubben übernehmen möchtest, schau ich im Laufe des Tages mal nach. S1 hatte ich damals wohl schon auf DVD-Rips gedubbt. Die DVDs müsste ich aber erstmal suchen, auf denen ich die XviDs gebrannt habe. Ton ist aber soweit ich in Erinnerung habe, in .ac3, nicht in .mp3 von mir gespeichert worden.
    • Hallo,

      ich hatte in den vergangenen Tagen überlegt genau solch einen Thread zu eröffnen. Alle hassen Chris ist eine der wenigen Comedy-Serien von Pro7, die nicht komplett in HD und ordentlicher Qualität vorliegen. Genau darum ging es mir dabei auch: Tonspuren ohne Störgeräusche sind öffentlich zumindest Mangelware. In der Tat gibt es davon weder DVD's noch VÖ bei Streaming-Anbieter. Top Tripod, wenn du da schon was liegen hast. Bezüglich Video-Source muss ich dann aber nochmal kurz reingrätschen: Was genau liegt dir da vor Burspecto? Seit mindestens vier Monaten gibt es nämlich für S02-S04 untouched Amazon DL's:

      Everybody.Hates.Chris.S02.1080p.AMZN.WEB-DL.DDP5.1.x264-alfaHD
      Everybody.Hates.Chris.S03.1080p.AMZN.WEB-DL.DDP5.1.x264-alfaHD
      Everybody.Hates.Chris.S04.1080p.AMZN.WEB-DL.DDP5.1.x264-alfaHD

      Wenn die qualitativ hochwertiger sind, dann doch lieber die verwenden ;). S01 hatte ich bisher nur 720p HDTV gefunden. Wenn du da schon was besseres hast, umso toller. Dann mal gutes Gelingen!

      lg
    • Samson schrieb:

      Bezüglich Video-Source muss ich dann aber nochmal kurz reingrätschen: Was genau liegt dir da vor Burspecto? Seit mindestens vier Monaten gibt es nämlich für S02-S04 untouched Amazon DL's:
      Everybody.Hates.Chris.S02.1080p.AMZN.WEB-DL.DDP5.1.x264-alfaHD
      Everybody.Hates.Chris.S03.1080p.AMZN.WEB-DL.DDP5.1.x264-alfaHD
      Everybody.Hates.Chris.S04.1080p.AMZN.WEB-DL.DDP5.1.x264-alfaHD
      Das klingt in der Tat so, als ob die besser wären. Ich hab zwar heute morgen noch mal geschaut, ob es was besseres gibt, aber die hab ich nicht gesehen. Das hier ist gerade auf meiner Festplatte und sieht zumindest meiner Meinung nach ordentlich aus. Zu den Amazon Releases kann ich noch nichts sagen. Es wäre toll, wenn du mir noch sagen könntest, wo ich die herbekomme. Die hab ich jetzt so schnell nicht gefunden.

      Quellcode

      1. General
      2. Complete name : EverybodyHatesChris-117-EverybodyHatesFunerals-P17-CWS_a44ca6e3b_8628kbps.mp4
      3. Format : MPEG-4
      4. Format profile : Base Media
      5. Codec ID : isom (isom/iso2/avc1/mp41)
      6. File size : 1.17 GiB
      7. Duration : 20 min 8 s
      8. Overall bit rate : 8 310 kb/s
      9. Encoded date : UTC 1970-01-01 00:00:00
      10. Tagged date : UTC 1970-01-01 00:00:00
      11. Writing application : Lavf52.111.0
      12. Video
      13. ID : 1
      14. Format : AVC
      15. Format/Info : Advanced Video Codec
      16. Format profile : [email protected]
      17. Format settings : CABAC / 4 Ref Frames
      18. Format settings, CABAC : Yes
      19. Format settings, ReFrames : 4 frames
      20. Codec ID : avc1
      21. Codec ID/Info : Advanced Video Coding
      22. Duration : 20 min 8 s
      23. Bit rate : 8 495 kb/s
      24. Width : 1 920 pixels
      25. Height : 1 080 pixels
      26. Display aspect ratio : 16:9
      27. Frame rate mode : Constant
      28. Frame rate : 23.976 (24000/1001) FPS
      29. Color space : YUV
      30. Chroma subsampling : 4:2:0
      31. Bit depth : 8 bits
      32. Scan type : Progressive
      33. Bits/(Pixel*Frame) : 0.171
      34. Stream size : 1.15 GiB (98%)
      35. Writing library : x264 core 118
      36. Encoding settings : cabac=1 / ref=3 / deblock=1:0:0 / analyse=0x3:0x113 / me=hex / subme=7 / psy=1 / psy_rd=1.00:0.00 / mixed_ref=1 / me_range=16 / chroma_me=1 / trellis=1 / 8x8dct=1 / cqm=0 / deadzone=21,11 / fast_pskip=1 / chroma_qp_offset=-2 / threads=1 / sliced_threads=0 / nr=0 / decimate=1 / interlaced=0 / bluray_compat=0 / constrained_intra=0 / bframes=3 / b_pyramid=2 / b_adapt=1 / b_bias=0 / direct=1 / weightb=1 / open_gop=0 / weightp=2 / keyint=90 / keyint_min=9 / scenecut=40 / intra_refresh=0 / rc_lookahead=40 / rc=2pass / mbtree=1 / bitrate=8495 / ratetol=1.0 / qcomp=0.60 / qpmin=0 / qpmax=69 / qpstep=4 / cplxblur=20.0 / qblur=0.5 / vbv_maxrate=8495 / vbv_bufsize=8495 / nal_hrd=none / ip_ratio=1.40 / aq=1:1.00
      37. Encoded date : UTC 1970-01-01 00:00:00
      38. Tagged date : UTC 1970-01-01 00:00:00
      39. Audio
      40. ID : 2
      41. Format : AAC
      42. Format/Info : Advanced Audio Codec
      43. Format profile : LC
      44. Codec ID : mp4a-40-2
      45. Duration : 20 min 8 s
      46. Bit rate mode : Constant
      47. Bit rate : 128 kb/s
      48. Channel(s) : 2 channels
      49. Channel positions : Front: L R
      50. Sampling rate : 48.0 kHz
      51. Frame rate : 46.875 FPS (1024 SPF)
      52. Compression mode : Lossy
      53. Stream size : 18.4 MiB (2%)
      54. Language : English
      55. Default : Yes
      56. Alternate group : 1
      57. Encoded date : UTC 1970-01-01 00:00:00
      58. Tagged date : UTC 1970-01-01 00:00:00
      Alles anzeigen

      Tripod schrieb:

      Also von S01 sind die 720p HDTV Versionen, die ich damals gefunden habe, geschnitten gewesen!!!
      Das Problem bei CWSeed ist, dass dort von Staffel 1 nur die Folgen 2, 3, 4, 8, 12, 14, 15, 17, 19 verfügbar sind.

      Dieser Beitrag wurde bereits 1 mal editiert, zuletzt von Burpecto ()

    • Ich hab mal einen kurzen Ausschnitt von S02E01 von CW Seed als Sample hochgeladen: filecrypt.cc/Container/F6CACAB9D8.html
      Ich denke, die Qualität ist sehr gut und die Amazon-Version wird (ohne dass ich sie gesehen habe) vielleicht minimal mehr Details liefern, dafür aber auch nochmal um einiges größer sein....

      ... Und ich bin bei meiner relativ geringen Uploadleitung für jedes Byte dankbar, das ich nicht hochladen muss.
    • Von der Größe her ist jede Staffel ca. 40GB groß. Vorteil ist O-Ton 5.1 + Untertitel. Bild müsste man dann vorher vergleichen. Bloß nichts überstürzen. Mir persönlich ist Größe zweitrangig, Qualität ist ausschlaggebend. Staffel 1 gibt es leider weder bei iTunes noch bei Amazon. Eine Folge zum Vergleich kann ich gerne mal laden.

      Quellcode

      1. General
      2. Unique ID : 196245379218492422998060322057456692414 (0x93A37C37EE8DC51B34603250BE6BACBE)
      3. Complete name : Everybody.Hates.Chris.S02E01.Everybody.Hates.Rejection.1080p.AMZN.WEB-DL.DD+5.1.x264-alfaHD.mkv
      4. Format : Matroska
      5. Format version : Version 4 / Version 2
      6. File size : 1.55 GiB
      7. Duration : 20 min 54 s
      8. Overall bit rate mode : Variable
      9. Overall bit rate : 10.6 Mb/s
      10. Encoded date : UTC 2018-04-15 17:51:42
      11. Writing application : mkvmerge v20.0.0 ('I Am The Sun') 64-bit
      12. Writing library : libebml v1.3.5 + libmatroska v1.4.8
      13. Video
      14. ID : 1
      15. Format : AVC
      16. Format/Info : Advanced Video Codec
      17. Format profile : [email protected]
      18. Format settings : CABAC / 4 Ref Frames
      19. Format settings, CABAC : Yes
      20. Format settings, ReFrames : 4 frames
      21. Codec ID : V_MPEG4/ISO/AVC
      22. Duration : 20 min 54 s
      23. Bit rate mode : Variable
      24. Bit rate : 9 994 kb/s
      25. Maximum bit rate : 15.0 Mb/s
      26. Width : 1 920 pixels
      27. Height : 1 080 pixels
      28. Display aspect ratio : 16:9
      29. Frame rate mode : Constant
      30. Frame rate : 23.976 (24000/1001) FPS
      31. Color space : YUV
      32. Chroma subsampling : 4:2:0
      33. Bit depth : 8 bits
      34. Scan type : Progressive
      35. Bits/(Pixel*Frame) : 0.201
      36. Stream size : 1.46 GiB (94%)
      37. Writing library : x264 core 148 r2623 d5b2374
      38. Encoding settings : cabac=1 / ref=4 / deblock=1:-1:-1 / analyse=0x3:0x133 / me=umh / subme=9 / psy=1 / psy_rd=1.00:0.15 / mixed_ref=1 / me_range=24 / chroma_me=1 / trellis=2 / 8x8dct=1 / cqm=0 / deadzone=21,11 / fast_pskip=1 / chroma_qp_offset=-3 / threads=34 / lookahead_threads=5 / sliced_threads=0 / nr=150 / decimate=1 / interlaced=0 / bluray_compat=0 / constrained_intra=0 / bframes=8 / b_pyramid=2 / b_adapt=2 / b_bias=0 / direct=3 / weightb=1 / open_gop=0 / weightp=2 / keyint=120 / keyint_min=61 / scenecut=0 / intra_refresh=0 / rc_lookahead=120 / rc=crf / mbtree=1 / crf=18.0 / qcomp=0.60 / qpmin=0 / qpmax=69 / qpstep=4 / vbv_maxrate=15000 / vbv_bufsize=31250 / crf_max=0.0 / nal_hrd=vbr / filler=0 / ip_ratio=1.40 / aq=3:1.00
      39. Default : Yes
      40. Forced : No
      41. Color range : Limited
      42. Color primaries : BT.709
      43. Transfer characteristics : BT.709
      44. Matrix coefficients : BT.709
      45. Audio
      46. ID : 2
      47. Format : E-AC-3
      48. Format/Info : Enhanced Audio Coding 3
      49. Codec ID : A_EAC3
      50. Duration : 20 min 54 s
      51. Bit rate mode : Constant
      52. Bit rate : 640 kb/s
      53. Channel(s) : 6 channels
      54. Channel positions : Front: L C R, Side: L R, LFE
      55. Sampling rate : 48.0 kHz
      56. Frame rate : 187.500 FPS (256 SPF)
      57. Compression mode : Lossy
      58. Stream size : 95.7 MiB (6%)
      59. Language : English
      60. Service kind : Complete Main
      61. Default : Yes
      62. Forced : No
      63. Text #1
      64. ID : 3
      65. Format : UTF-8
      66. Codec ID : S_TEXT/UTF8
      67. Codec ID/Info : UTF-8 Plain Text
      68. Duration : 20 min 34 s
      69. Bit rate : 109 b/s
      70. Count of elements : 558
      71. Stream size : 16.4 KiB (0%)
      72. Language : English
      73. Default : No
      74. Forced : No
      75. Text #2
      76. ID : 4
      77. Format : UTF-8
      78. Codec ID : S_TEXT/UTF8
      79. Codec ID/Info : UTF-8 Plain Text
      80. Duration : 20 min 34 s
      81. Bit rate : 111 b/s
      82. Count of elements : 578
      83. Stream size : 16.8 KiB (0%)
      84. Title : SDH
      85. Language : English
      86. Default : No
      87. Forced : No
      Alles anzeigen


      Quellcode

      1. General
      2. Unique ID : 235721494729667327919828069818709552869 (0xB1564EFB6661814882F75D3ECAC3AEE5)
      3. Complete name : Everybody.Hates.Chris.S03E01.Everybody.Hates.the.Guidance.Counselor.1080p.AMZN.WEB-DL.DD+5.1.x264-alfaHD.mkv
      4. Format : Matroska
      5. Format version : Version 4 / Version 2
      6. File size : 1.93 GiB
      7. Duration : 20 min 40 s
      8. Overall bit rate mode : Variable
      9. Overall bit rate : 13.4 Mb/s
      10. Encoded date : UTC 2018-04-15 18:16:35
      11. Writing application : mkvmerge v20.0.0 ('I Am The Sun') 64-bit
      12. Writing library : libebml v1.3.5 + libmatroska v1.4.8
      13. Video
      14. ID : 1
      15. Format : AVC
      16. Format/Info : Advanced Video Codec
      17. Format profile : [email protected]
      18. Format settings : CABAC / 4 Ref Frames
      19. Format settings, CABAC : Yes
      20. Format settings, ReFrames : 4 frames
      21. Codec ID : V_MPEG4/ISO/AVC
      22. Duration : 20 min 40 s
      23. Bit rate mode : Variable
      24. Bit rate : 12.7 Mb/s
      25. Maximum bit rate : 15.0 Mb/s
      26. Width : 1 920 pixels
      27. Height : 1 080 pixels
      28. Display aspect ratio : 16:9
      29. Frame rate mode : Constant
      30. Frame rate : 23.976 (24000/1001) FPS
      31. Color space : YUV
      32. Chroma subsampling : 4:2:0
      33. Bit depth : 8 bits
      34. Scan type : Progressive
      35. Bits/(Pixel*Frame) : 0.256
      36. Stream size : 1.84 GiB (95%)
      37. Writing library : x264 core 148 r2623 d5b2374
      38. Encoding settings : cabac=1 / ref=4 / deblock=1:-1:-1 / analyse=0x3:0x133 / me=umh / subme=9 / psy=1 / psy_rd=1.00:0.15 / mixed_ref=1 / me_range=24 / chroma_me=1 / trellis=2 / 8x8dct=1 / cqm=0 / deadzone=21,11 / fast_pskip=1 / chroma_qp_offset=-3 / threads=34 / lookahead_threads=5 / sliced_threads=0 / nr=150 / decimate=1 / interlaced=0 / bluray_compat=0 / constrained_intra=0 / bframes=8 / b_pyramid=2 / b_adapt=2 / b_bias=0 / direct=3 / weightb=1 / open_gop=0 / weightp=2 / keyint=120 / keyint_min=61 / scenecut=0 / intra_refresh=0 / rc_lookahead=120 / rc=crf / mbtree=1 / crf=18.0 / qcomp=0.60 / qpmin=0 / qpmax=69 / qpstep=4 / vbv_maxrate=15000 / vbv_bufsize=31250 / crf_max=0.0 / nal_hrd=vbr / filler=0 / ip_ratio=1.40 / aq=3:1.00
      39. Default : Yes
      40. Forced : No
      41. Color range : Limited
      42. Color primaries : BT.709
      43. Transfer characteristics : BT.709
      44. Matrix coefficients : BT.709
      45. Audio
      46. ID : 2
      47. Format : E-AC-3
      48. Format/Info : Enhanced Audio Coding 3
      49. Codec ID : A_EAC3
      50. Duration : 20 min 40 s
      51. Bit rate mode : Constant
      52. Bit rate : 640 kb/s
      53. Channel(s) : 6 channels
      54. Channel positions : Front: L C R, Side: L R, LFE
      55. Sampling rate : 48.0 kHz
      56. Frame rate : 187.500 FPS (256 SPF)
      57. Compression mode : Lossy
      58. Stream size : 94.6 MiB (5%)
      59. Language : English
      60. Service kind : Complete Main
      61. Default : Yes
      62. Forced : No
      63. Text #1
      64. ID : 3
      65. Format : UTF-8
      66. Codec ID : S_TEXT/UTF8
      67. Codec ID/Info : UTF-8 Plain Text
      68. Duration : 20 min 17 s
      69. Bit rate : 118 b/s
      70. Count of elements : 531
      71. Stream size : 17.6 KiB (0%)
      72. Language : English
      73. Default : No
      74. Forced : No
      75. Text #2
      76. ID : 4
      77. Format : UTF-8
      78. Codec ID : S_TEXT/UTF8
      79. Codec ID/Info : UTF-8 Plain Text
      80. Duration : 20 min 17 s
      81. Bit rate : 119 b/s
      82. Count of elements : 538
      83. Stream size : 17.7 KiB (0%)
      84. Title : SDH
      85. Language : English
      86. Default : No
      87. Forced : No
      Alles anzeigen

      Quellcode

      1. General
      2. Unique ID : 236740568081749603803463068185336006779 (0xB21A932D6E9D63A3D96E5E948C48C87B)
      3. Complete name : Everybody.Hates.Chris.S04E01.Everybody.Hates.Tattaglia.1080p.AMZN.WEB-DL.DD+5.1.x264-alfaHD.mkv
      4. Format : Matroska
      5. Format version : Version 4 / Version 2
      6. File size : 2.08 GiB
      7. Duration : 20 min 44 s
      8. Overall bit rate mode : Variable
      9. Overall bit rate : 14.4 Mb/s
      10. Encoded date : UTC 2018-04-15 18:43:59
      11. Writing application : mkvmerge v20.0.0 ('I Am The Sun') 64-bit
      12. Writing library : libebml v1.3.5 + libmatroska v1.4.8
      13. Video
      14. ID : 1
      15. Format : AVC
      16. Format/Info : Advanced Video Codec
      17. Format profile : [email protected]
      18. Format settings : CABAC / 4 Ref Frames
      19. Format settings, CABAC : Yes
      20. Format settings, ReFrames : 4 frames
      21. Codec ID : V_MPEG4/ISO/AVC
      22. Duration : 20 min 44 s
      23. Bit rate mode : Variable
      24. Bit rate : 13.7 Mb/s
      25. Maximum bit rate : 15.0 Mb/s
      26. Width : 1 920 pixels
      27. Height : 1 080 pixels
      28. Display aspect ratio : 16:9
      29. Frame rate mode : Constant
      30. Frame rate : 23.976 (24000/1001) FPS
      31. Color space : YUV
      32. Chroma subsampling : 4:2:0
      33. Bit depth : 8 bits
      34. Scan type : Progressive
      35. Bits/(Pixel*Frame) : 0.276
      36. Stream size : 1.99 GiB (96%)
      37. Writing library : x264 core 148 r2623 d5b2374
      38. Encoding settings : cabac=1 / ref=4 / deblock=1:-1:-1 / analyse=0x3:0x133 / me=umh / subme=9 / psy=1 / psy_rd=1.00:0.15 / mixed_ref=1 / me_range=24 / chroma_me=1 / trellis=2 / 8x8dct=1 / cqm=0 / deadzone=21,11 / fast_pskip=1 / chroma_qp_offset=-3 / threads=34 / lookahead_threads=5 / sliced_threads=0 / nr=150 / decimate=1 / interlaced=0 / bluray_compat=0 / constrained_intra=0 / bframes=8 / b_pyramid=2 / b_adapt=2 / b_bias=0 / direct=3 / weightb=1 / open_gop=0 / weightp=2 / keyint=120 / keyint_min=61 / scenecut=0 / intra_refresh=0 / rc_lookahead=120 / rc=crf / mbtree=1 / crf=18.0 / qcomp=0.60 / qpmin=0 / qpmax=69 / qpstep=4 / vbv_maxrate=15000 / vbv_bufsize=31250 / crf_max=0.0 / nal_hrd=vbr / filler=0 / ip_ratio=1.40 / aq=3:1.00
      39. Default : Yes
      40. Forced : No
      41. Color range : Limited
      42. Color primaries : BT.709
      43. Transfer characteristics : BT.709
      44. Matrix coefficients : BT.709
      45. Audio
      46. ID : 2
      47. Format : E-AC-3
      48. Format/Info : Enhanced Audio Coding 3
      49. Codec ID : A_EAC3
      50. Duration : 20 min 44 s
      51. Bit rate mode : Constant
      52. Bit rate : 640 kb/s
      53. Channel(s) : 6 channels
      54. Channel positions : Front: L C R, Side: L R, LFE
      55. Sampling rate : 48.0 kHz
      56. Frame rate : 187.500 FPS (256 SPF)
      57. Compression mode : Lossy
      58. Stream size : 95.0 MiB (4%)
      59. Language : English
      60. Service kind : Complete Main
      61. Default : Yes
      62. Forced : No
      63. Text #1
      64. ID : 3
      65. Format : UTF-8
      66. Codec ID : S_TEXT/UTF8
      67. Codec ID/Info : UTF-8 Plain Text
      68. Duration : 20 min 30 s
      69. Bit rate : 107 b/s
      70. Count of elements : 501
      71. Stream size : 16.1 KiB (0%)
      72. Language : English
      73. Default : No
      74. Forced : No
      75. Text #2
      76. ID : 4
      77. Format : UTF-8
      78. Codec ID : S_TEXT/UTF8
      79. Codec ID/Info : UTF-8 Plain Text
      80. Duration : 20 min 30 s
      81. Bit rate : 109 b/s
      82. Count of elements : 515
      83. Stream size : 16.4 KiB (0%)
      84. Title : SDH
      85. Language : English
      86. Default : No
      87. Forced : No
      Alles anzeigen

      Dieser Beitrag wurde bereits 1 mal editiert, zuletzt von Samson ()

    • Ich konnte heute das Projekt abschließen. Nachdem ich mir die HDTV-Releases von Staffel 1 nochmal genauer angeschaut habe, stellte ich fest, dass die Schnitte doch nicht so gravierend sind und habe mich dazu entschieden, die fehlenden Folgen von S01 noch zu dubben. Der Upload der Tonspuren läuft.
      Ich möchte mich an dieser Stelle bei Tripod bedanken, der mit seinen Aufnahmen von Comedy Central dieses Projekt überhaupt erst ermöglicht hat. Ein großer Dank geht auch an Samson, der mir die Amazon-Releases zum dubben zur Verfügung gestellt und das Endprodukt auf die Main gebracht hat.

      Jetzt bleibt mir nur noch, euch viel viel Spaß mit Chris, Tonya, Drew, Rochelle, Julius und Greg zu wünschen :thumbsup:

      Dieser Beitrag wurde bereits 1 mal editiert, zuletzt von Burpecto ()