[Suche] Verrückt nach dir | S01-S04 | Scene-Release

    • [Suche] Verrückt nach dir | S01-S04 | Scene-Release

      Da die Staffeln 1-4 nur als aTV vorliegen sogar teilweise noch in MPEG mit einer Auflösung von ~300x200 wollte ich mal diese Anfrage hier starten. Vielleicht gelingt es jemanden diese Releases noch aufzutreiben oder vielleicht hat die sogar noch irgendwer.

      Verrueckt.nach.Dir.S01.German.FS.DVDRip.XviD-ITG
      Verrueckt.nach.dir.S02.GERMAN.FS.DVDRip.XviD-aWake
      Verrueckt.nach.dir.S03.GERMAN.dTV.XviD-FKKTV
      Verrueckt.nach.dir.S04.German.dTV.XviD-FKKTV

      Die Staffeln 5 bis 7 gibs ja als dTV-Rip von FKKTV gibt wäre es super, wenn es den Rest auch als qualitativ besseren Scene-Release geben würde. :thumbup:
    • S01,S03 und S04 kommen gerade als XviD DivX 5 rein, zur Auflösung kann ich noch nichts sagen muss man weiter unten schauen.

      Sicherlich nicht das Allerbeste, aber besser als MPEG1 in 300x200 allemal.

      S02 kommt als DVD09.

      Werde zu berichten wissen. ;)
      Früher musste ich den Weg zur Schule laufen.
      Im Schnee.
      Beide Wege bergauf.

      Dieser Beitrag wurde bereits 3 mal editiert, zuletzt von Morph3us ()

    • Staffel 01:

      Quellcode

      1. General
      2. Complete name : VnD0101.avi
      3. Format : AVI
      4. Format/Info : Audio Video Interleave
      5. File size : 195 MiB
      6. Duration : 19 min 23 s
      7. Overall bit rate mode : Variable
      8. Overall bit rate : 1 406 kb/s
      9. Writing application : VirtualDubMod 1.5.4.1 (build 2178/release)
      10. Writing library : VirtualDubMod build 2178/release
      11. Video
      12. ID : 0
      13. Format : MPEG-4 Visual
      14. Format settings, BVOP : No
      15. Format settings, QPel : No
      16. Format settings, GMC : No warppoints
      17. Format settings, Matrix : Default (H.263)
      18. Codec ID : DX50
      19. Codec ID/Hint : DivX 5
      20. Duration : 19 min 23 s
      21. Bit rate : 1 288 kb/s
      22. Nominal bit rate : 6 951 kb/s
      23. Width : 512 pixels
      24. Height : 384 pixels
      25. Display aspect ratio : 4:3
      26. Frame rate : 25.000 FPS
      27. Color space : YUV
      28. Chroma subsampling : 4:2:0
      29. Bit depth : 8 bits
      30. Scan type : Progressive
      31. Compression mode : Lossy
      32. Bits/(Pixel*Frame) : 0.262
      33. Stream size : 179 MiB (92%)
      34. Writing library : DivX 5.2.1 (WaffleDay) (UTC 2004-09-08)
      35. Audio
      36. ID : 1
      37. Format : MPEG Audio
      38. Format version : Version 1
      39. Format profile : Layer 3
      40. Format settings : Joint stereo / MS Stereo
      41. Mode : Joint stereo
      42. Mode extension : MS Stereo
      43. Codec ID : 55
      44. Codec ID/Hint : MP3
      45. Duration : 19 min 22 s
      46. Bit rate mode : Variable
      47. Bit rate : 105 kb/s
      48. Channel(s) : 2 channels
      49. Sampling rate : 48.0 kHz
      50. Compression mode : Lossy
      51. Stream size : 14.5 MiB (7%)
      52. Alignment : Aligned on interleaves
      53. Interleave, duration : 24 ms (0.60 video frame)
      54. Interleave, preload duration : 501 ms
      Alles anzeigen






      Staffel 03: Hierbei handelt es sich um die MPGs der Mainpage. Ich spare mir Specs und Screenshots.


      Staffel 04:

      Quellcode

      1. General
      2. Complete name : VnDS04E01.avi
      3. Format : AVI
      4. Format/Info : Audio Video Interleave
      5. File size : 233 MiB
      6. Duration : 22 min 12 s
      7. Overall bit rate mode : Variable
      8. Overall bit rate : 1 467 kb/s
      9. Writing application : VirtualDubMod 1.5.4.1 (build 2178/release)
      10. Writing library : VirtualDubMod build 2178/release
      11. Video
      12. ID : 0
      13. Format : MPEG-4 Visual
      14. Format settings, BVOP : No
      15. Format settings, QPel : No
      16. Format settings, GMC : No warppoints
      17. Format settings, Matrix : Default (H.263)
      18. Codec ID : DX50
      19. Codec ID/Hint : DivX 5
      20. Duration : 22 min 12 s
      21. Bit rate : 1 348 kb/s
      22. Nominal bit rate : 6 951 kb/s
      23. Width : 496 pixels
      24. Height : 368 pixels
      25. Display aspect ratio : 4:3
      26. Frame rate : 25.000 FPS
      27. Color space : YUV
      28. Chroma subsampling : 4:2:0
      29. Bit depth : 8 bits
      30. Scan type : Progressive
      31. Compression mode : Lossy
      32. Bits/(Pixel*Frame) : 0.295
      33. Stream size : 214 MiB (92%)
      34. Writing library : DivX 5.2.1 (WaffleDay) (UTC 2004-09-08)
      35. Audio
      36. ID : 1
      37. Format : MPEG Audio
      38. Format version : Version 1
      39. Format profile : Layer 3
      40. Format settings : Joint stereo / MS Stereo
      41. Mode : Joint stereo
      42. Mode extension : MS Stereo
      43. Codec ID : 55
      44. Codec ID/Hint : MP3
      45. Duration : 22 min 12 s
      46. Bit rate mode : Variable
      47. Bit rate : 106 kb/s
      48. Channel(s) : 2 channels
      49. Sampling rate : 48.0 kHz
      50. Compression mode : Lossy
      51. Stream size : 16.9 MiB (7%)
      52. Alignment : Aligned on interleaves
      53. Interleave, duration : 24 ms (0.60 video frame)
      54. Interleave, preload duration : 480 ms
      Alles anzeigen



      Die Auflösung der einzelnen Folgen von S04 schwankt von 496x368, über 464x352 hin zu 512x384.
      Früher musste ich den Weg zur Schule laufen.
      Im Schnee.
      Beide Wege bergauf.

      Dieser Beitrag wurde bereits 9 mal editiert, zuletzt von Morph3us ()

    • Alles klar. Hier die 25 Folgen von Staffel 2 als DVDRiP. Ich habe nur deinterlaced und die Ränder gecroppt, allerdings können einzelne Szenen immer noch leicht schwarze Ränder haben, dafür wollte ich nicht unnötig viel Bild wegschneiden. Keine weiter Denoise oder Weichzeichner eingesetzt.

      Verrückt nach Dir - Staffel 2 - Share-Online
      Früher musste ich den Weg zur Schule laufen.
      Im Schnee.
      Beide Wege bergauf.
    • houdini schrieb:

      Morph3us schrieb:

      Staffel 2 kommt von mir als DVDRiP.

      Soll ich die Files von Staffel 1 und 4 mit obigen Specs auch bereitstellen?
      Oh man vielen Dank für die Arbeit! Ja, wäre klasse - ich habe die Serie wieder gesucht - früher habe ich die soooo gerne gesehen und sie ist ja schwer zu bekommen
      Die Staffeln sind im Usenet zu beziehen, ich habe davon nichts mehr.
      Früher musste ich den Weg zur Schule laufen.
      Im Schnee.
      Beide Wege bergauf.
    • Staffel 1 kommt von mir als DVDRiP, sowie Einzelfolgen aus den darauffolgenden Staffeln.

      Außerdem auch Einzelfolgen der Staffeln 3-6. Wird einen kleinen Moment dauern, aber kommt mit Sicherheit.
      Früher musste ich den Weg zur Schule laufen.
      Im Schnee.
      Beide Wege bergauf.

      Dieser Beitrag wurde bereits 1 mal editiert, zuletzt von Morph3us ()